[ Сегодня идет свободное скачивание без начисления Download ]


Статистика раздачи
Нет
 
   
 
 
 
Михаил Задорнов
Ну тупые! Американская коллекция
- Информация:
Год: 2016
Телекомпания: РЕН
Жанр: Юмористический концерт, сатира
Описание:
Михаил Задорнов про Америку и Россию: не они тупые! Тупые мы, когда подражаем им в том, в чем они хуже нас! В этом концерте Михаила Задорнова лучшие эстрадные номера про Америку, американцев, законы и политику США.
От: svlesin
Продолжительность: ~ 01:43:48
Файл:
Качество видео: WEB-DLRip
Видео: AVC, 1280x720 (16:9), 25.000 fps, 991 Kbps (0.043 bit/pixel)
Аудио: AC-3, 44.1 KHz, 2 ch, 192 Kbps, CBR
Субтитры: Отсутствуют

Mediainfo:

Общее
Уникальный идентификатор : 218597646602645978526634813839045087651 (0xA47460160CE2F835BDB793E0E280D1A3)
Полное имя : D:\[1]\Задорнов\Михаил Задорнов. Ну тупые! Американская коллекция (2016)_720.mkv
Формат : Matroska
Версия формата : Version 4 / Version 2
Размер файла : 896 Мбайт
Продолжительность : 1 ч. 43 м.
Общий поток : 1207 Кбит/сек
Название фильма : Михаил Задорнов. Ну тупые! Американская коллекция (2016)_720_nnmclub.to
Дата кодирования : UTC 2016-12-17 10:58:07
Программа кодирования : mkvmerge v9.5.0 ('Quiet Fire') 64bit
Библиотека кодирования : libebml v1.3.4 + libmatroska v1.4.5
DURATION : 01:43:48.950000000
NUMBER_OF_FRAMES : 178839
NUMBER_OF_BYTES : 149494804
_STATISTICS_WRITING_APP : mkvmerge v9.5.0 ('Quiet Fire') 64bit
_STATISTICS_WRITING_DATE_UTC : 2016-12-17 10:58:07
_STATISTICS_TAGS : BPS DURATION NUMBER_OF_FRAMES NUMBER_OF_BYTES
Видео
Идентификатор : 1
Формат : AVC
Формат/Информация : Advanced Video Codec
Профиль формата : [email protected]
Параметр CABAC формата : Да
Параметр ReFrames формата : 3 кадра
Идентификатор кодека : V_MPEG4/ISO/AVC
Продолжительность : 1 ч. 43 м.
Битрейт : 991 Кбит/сек
Ширина : 1280 пикселей
Высота : 720 пикселей
Соотношение сторон : 16:9
Режим частоты кадров : Постоянный
Частота кадров : 25,000 кадров/сек
Цветовое пространство : YUV
Субдискретизация насыщенности : 4:2:0
Битовая глубина : 8 бит
Тип развёртки : Прогрессивная
Бит/(Пиксели*Кадры) : 0.043
Размер потока : 736 Мбайт (82%)
Default : Да
Forced : Нет
Цветовой диапазон : Limited
Основные цвета : BT.709
Характеристики трансфера : BT.709
Коэффициенты матрицы : BT.709
Аудио
Идентификатор : 2
Формат : AC-3
Формат/Информация : Audio Coding 3
Расширение режима : CM (complete main)
Параметр Endianness формата : Big
Идентификатор кодека : A_AC3
Продолжительность : 1 ч. 43 м.
Вид битрейта : Постоянный
Битрейт : 192 Кбит/сек
Каналы : 2 канала
Расположение каналов : Front: L R
Частота : 44,1 КГц
Битовая глубина : 16 бит
Метод сжатия : С потерями
Размер потока : 143 Мбайт (16%)
Default : Да
Forced : Нет

Скриншоты

Скриншоты:

[Цитировать]



Показать сообщения:    

Текущее время: 16-Авг 13:33

Часовой пояс: UTC + 6


Вы не можете начинать темы
Вы не можете отвечать на сообщения
Вы не можете редактировать свои сообщения
Вы не можете удалять свои сообщения
Вы не можете голосовать в опросах
Вы не можете прикреплять файлы к сообщениям
Вы не можете скачивать файлы

!ВНИМАНИЕ!
Сайт не предоставляет электронные версии произведений, а занимается лишь коллекционированием и каталогизацией ссылок, присылаемых и публикуемых на форуме нашими читателями. Если вы являетесь правообладателем какого-либо представленного материала и не желаете, чтобы ссылка на него находилась в нашем каталоге, свяжитесь с нами, и мы незамедлительно удалим ее. Файлы для обмена на трекере предоставлены пользователями сайта, и администрация не несет ответственности за их содержание. Просьба не заливать файлы, защищенные авторскими правами, а также файлы нелегального содержания!